#TITLE:Get High;
#SUBTITLE:;
#ARTIST:F.I.R.;
#TITLETRANSLIT:Get High;
#SUBTITLETRANSLIT:;
#ARTISTTRANSLIT:F.I.R.;
#CREDIT:;
#BANNER:Get High-bn.png;
#BACKGROUND:Get High-bg.png;
#LYRICSPATH:;
#CDTITLE:pm4cd.png;
#MUSIC:Get High.mp3;
#OFFSET:0.040;
#SAMPLESTART:14.800;
#SAMPLELENGTH:20.000;
#SELECTABLE:YES;
#BPMS:0.000=132.020;
#STOPS:;
#BGCHANGES:0.000=Get High.avi=1.000=0=0=1,
99999=-nosongbg-=1.000=0=0=0 // don't automatically add -songbackground-
;
// cache tags:
#FIRSTBEAT:2.250;
#LASTBEAT:458.250;
#SONGFILENAME:Songs/Music V.I.P ^_^/Get High/Get High.sm;
#HASMUSIC:1;
#HASBANNER:1;
#MUSICLENGTH:215.040;
// end cache tags

//---------------dance-single - ----------------
#NOTES:
     dance-single:
     :
     Hard:
     9:
     0.840,1.000,1.000,0.065,1.000,873.000,313.000,14.000,0.000,68.000:
0000
0000
0000
0000
0000
0000
0000
0000
0000
1002
0000
0000
0000
0010
0000
1000
,
0000
0000
0000
0100
0000
0010
0000
1000
0003
1010
0000
0000
0100
0001
0000
1010
,
0000
0000
0000
0001
0000
0110
0000
1010
0000
0201
0000
0000
0000
0010
0000
0001
,
0000
0000
0000
0010
0000
1000
0000
0001
0300
1010
0000
0000
0100
0001
0000
1010
,
0000
0000
0000
0100
0000
0001
0010
0100
1000
0101
0000
0010
0100
1000
0000
1001
,
0000
0000
0010
0100
0000
0011
0000
1000
0000
0101
0000
0010
0000
1100
0000
0101
,
0000
0010
0000
1001
0000
0110
0000
0001
0000
1010
0000
0100
0010
0001
0000
1010
,
0000
0100
0000
1001
0000
0101
0000
1010
0000
0200
0000
0000
0000
0000
0000
0000
,
0000
0000
0000
0000
0000
0300
0000
0000
0000
1001
0000
0000
0000
0101
0000
0010
,
0000
0000
0000
0100
0000
1001
0000
0010
0000
0101
0000
0000
0000
1010
0000
0100
,
0000
0000
0000
0010
0000
1001
0000
0100
0000
0011
0000
0000
0000
1010
0000
0100
,
0000
0000
0000
0010
0000
0101
0000
0010
0100
1001
0000
0000
0000
0010
0000
1101
,
0000
0000
0000
0101
0000
0101
0000
0010
0100
1010
0000
0000
1010
0000
0000
1010
,
0000
0000
0000
0101
0000
0010
0100
1000
0000
0101
0000
0010
0100
0001
0000
1001
,
0000
0000
0000
1100
0000
1100
0000
1100
0000
1011
0000
0000
0000
0101
0000
0000
,
0000
0010
0000
1000
0000
0011
0000
0100
0000
1001
0000
1001
0000
1001
0000
1001
,
0000
0100
0000
0011
0000
0001
0010
0100
1000
0101
0000
0000
0000
1010
0000
0000
,
0100
0001
0000
0010
0000
1001
0000
0100
0000
1001
0000
0000
0000
0101
0000
0000
,
0010
1000
0000
0100
0000
0011
0000
0100
0000
1010
0000
0000
0000
0100
0000
0010
,
0000
0010
0000
0010
0000
0010
0000
1001
0000
0000
0000
0000
0000
1011
0000
0000
,
0000
1011
0000
0000
0000
1011
0000
0000
0000
0101
0000
0000
0000
1001
0000
0000
,
0100
0010
0000
1000
0000
0101
0000
0010
0000
1100
0000
0000
0000
1001
0000
0000
,
0100
0010
0000
1000
0000
0011
0000
0100
0000
1001
0000
0000
0000
1010
0000
0000
,
0010
0100
0000
0001
0000
1010
0000
0010
0100
1001
0000
0000
1001
0000
0000
1001
,
0000
0110
0000
0000
0000
1001
0000
0000
0000
1000
0000
0000
0000
0001
0000
0000
,
0000
1000
0000
1000
0000
0001
0000
1000
0000
1000
0000
0000
0000
0010
0000
0000
,
0000
0100
0000
0100
0000
0010
0000
0100
0000
0100
0000
0000
0000
0001
0000
0000
,
0000
0100
0000
0100
0000
0001
0000
0100
0000
0100
0000
0000
0000
0010
0000
0000
,
0000
1000
0000
1000
0000
0010
0100
1000
0000
0101
0000
0000
0000
0010
0000
0000
,
0000
1000
0000
1000
0000
0010
0000
1000
0000
1001
0000
0000
0000
0100
0000
1010
,
0000
0000
0000
0100
0010
0001
0000
0100
0000
1001
0000
0101
0000
0000
0000
0101
,
0000
0010
0000
1000
0000
0001
0000
1010
0000
0000
0000
0101
0000
0101
0000
0101
,
0000
0020
0000
0000
0000
0100
1000
0001
0030
1102
0000
0000
0000
0000
0000
0010
,
0003
1020
0000
0000
0000
0000
0000
0000
0030
0201
0000
0000
0000
0010
0000
0010
,
0300
2001
0000
0000
0000
0000
0000
0000
3000
0120
0000
0000
0000
0000
0000
0100
,
0000
1000
0000
0000
0000
0000
0000
0030
0000
1101
0000
0000
1101
0000
0000
1101
,
0000
0001
0010
0100
1000
0010
0000
0101
0000
1010
0000
0000
0000
0100
0000
1001
,
0000
0000
0000
0100
0010
0001
0010
0100
0000
1001
0000
0000
0010
0000
0000
0101
,
0000
0000
0000
0010
0100
1000
0000
0101
0000
1001
0000
0000
0000
0101
0000
0000
,
0010
1000
0000
0100
0000
1001
0000
0100
0010
1001
0000
1001
0000
1001
0000
1001
,
0000
1101
0000
0000
0000
1011
0000
0000
0000
0111
0000
0000
0000
0011
0000
1100
,
0000
0000
0000
1001
0000
0010
0000
1100
0000
0110
0000
0000
0000
1001
0000
0101
,
0000
0000
0000
0011
0000
0101
0000
1010
0000
1110
0000
0000
0000
0101
0000
1010
,
0000
0000
0000
1100
0000
0001
0010
0101
0010
1101
0000
0010
0000
1100
0000
1001
,
0000
0000
0000
0110
0000
0110
0000
0110
0000
0111
0000
0000
0111
0000
0000
0111
,
0000
0000
0000
1000
0100
0010
0100
0010
0001
1010
0000
0101
0000
1001
0000
0110
,
0000
0000
0000
0011
0000
0011
0000
0011
0000
1011
0000
0000
0000
1101
0000
0000
,
1000
0010
0000
1100
0000
0000
0000
0110
0000
1001
0000
1001
0000
1001
0000
1001
,
0000
1001
0000
1001
0000
1001
0010
0100
1000
0100
1011
0100
1000
0100
1000
0100
,
0010
0001
0010
0001
0010
0100
1000
0100
0010
0100
0010
0001
0010
1000
0010
1000
,
0100
0010
0001
0100
0001
0100
0001
0010
0100
1000
0001
1000
0001
1000
0100
0010
,
0100
0010
0001
0010
0100
0010
0100
1000
0100
0010
0100
1000
0001
0010
0100
1000
,
0100
0010
0001
0100
0010
1000
0010
0100
1000
0111
0000
0000
0111
0000
0000
0111
,
0000
0000
0000
1000
0100
0010
0001
0010
0100
1011
0100
0010
0001
1010
0100
0010
,
0001
1100
0010
0101
0010
0101
0010
0101
0010
0101
1000
0100
1000
0101
1000
0100
,
0010
1001
0010
0001
0010
1001
0010
0100
1000
0110
0000
0110
0000
0110
0000
0110
,
0000
0110
0000
0110
0001
0010
0100
0010
0100
1001
0000
0000
0000
1000
0000
0000
,
0000
0001
0000
0001
0000
0100
0000
0001
0000
0001
0000
0000
0000
1000
0000
0000
,
0000
0010
0000
0010
0000
0100
0000
0010
0000
0010
0000
0000
0000
0001
0000
0000
,
0000
1000
0000
1000
0000
0100
0000
1000
0000
1000
0000
0000
0000
0010
0000
0000
,
0000
0001
0000
0001
0000
0100
0010
0001
0010
1100
0000
0000
0000
0100
0000
0000
,
0000
0010
0000
0010
0000
0001
0000
0010
0000
1110
0000
0000
0000
0001
0000
1101
,
0000
0000
0000
1000
0100
0010
0000
0101
0000
1011
0000
0100
0000
0000
0000
0001
,
0000
1010
0000
0000
0000
0100
0000
0010
0000
0000
0000
1101
0000
1101
0000
1101
,
0000
1101
0000
1101
0000
1101
0010
0100
1000
0112
0000
0000
0000
0000
0000
0000
,
0000
1100
0000
0000
0000
0000
0000
0000
0003
0201
0000
0000
0000
0000
0000
0000
,
0000
1010
0000
0000
0000
0000
0000
0000
0300
0120
0000
0000
0000
0000
0000
0000
,
0000
0101
0000
0000
0000
0000
0000
0000
0030
0111
0000
0000
0111
0000
0000
0111
,
0000
0000
1000
0000
0100
0000
0010
0000
0100
0000
0010
0000
0001
0000
0010
0000
0100
0000
1011
0000
0000
0000
1011
0000
0000
1011
0000
0000
0000
0000
1011
0000
,
0000
0000
0000
0100
0010
0100
0010
0100
0010
1101
0000
1100
0000
0010
0000
0101
,
0000
0000
0000
0001
0010
0100
0010
0100
1000
0111
0000
0000
0000
1100
0000
0000
,
0100
0001
0000
1100
0000
0010
0000
0000
0000
0111
0000
0000
0111
0000
0000
1110
,
0000
1110
0000
1000
0010
0100
0001
1000
0010
0101
0000
0000
0000
1010
0000
0100
,
0000
0000
0000
0010
0000
1001
0000
0100
0000
1001
0000
0000
0000
1010
0000
0100
,
0000
0000
0000
0001
0000
1100
0000
0010
0000
0101
0000
0000
0000
0100
0000
1010
,
0000
0000
0000
0100
0000
1001
0000
0010
0100
1010
0000
0000
0000
0100
0000
1011
,
0000
0000
0000
0110
0000
0110
0000
1000
0100
0011
0000
0000
1010
0000
0000
1010
,
0000
0000
0000
0101
0000
0010
1000
0100
0010
0101
0000
0010
0000
0010
0000
0101
,
0000
0000
0000
0110
0000
0110
0000
0110
0000
1011
0000
0000
0000
0101
0000
0000
,
0010
1000
0000
0011
0000
0100
0000
1001
0000
0102
0000
0000
0000
0000
0000
0000
,
0000
1100
0000
0000
1100
0000
0000
1100
0003
0010
0100
0000
0000
0010
0001
0000
,
0010
0000
0100
1000
0000
0100
0010
0001
0010
0100
1000
0100
0000
0010
0001
0000
,
0010
0000
0100
1000
0000
0100
0010
0001
0010
0100
1000
0010
0000
0100
0001
0000
,
0010
0000
0100
1000
0000
0010
0001
0010
0100
0010
0001
0010
0000
0100
1000
0000
,
0100
0000
0010
0001
0000
0100
0010
0001
0010
1101
0000
0000
0000
0100
0000
0000
,
0000
0010
0000
0000
0000
0001
0000
0000
0000
0010
0000
0000
0000
0100
0000
0000
,
0000
1000
0000
0000
0000
0100
0000
0000
0000
1001
0000
0000
0000
0100
0000
0000
,
0000
0001
0000
0000
0000
1000
0000
0000
0000
0101
0000
0000
0000
0010
0000
0100
,
1000
0100
1000
0100
0000
0001
0000
0000
0000
1010
0000
0100
0000
0001
0000
0010
,
0100
1000
0100
0010
0000
1001
0000
0100
0000
0011
0000
0100
0000
0010
0000
0100
,
1000
0100
0000
0001
0000
1010
0000
0100
0000
1001
0000
0100
0010
0001
0000
0010
,
0100
1000
0100
0010
0000
0100
0000
0100
0010
0001
0000
0010
0100
1000
0000
0100
,
0010
0001
0000
0010
0000
0000
1000
0000
0000
0101
0000
0010
0000
1001
0000
0100
,
0010
0001
0010
0100
0000
1001
0000
0010
0000
1100
0000
0001
0000
0110
0000
0001
,
0010
0000
0001
0000
0000
0000
1000
0000
0000
0000
0011
0000
0000
0000
0100
0000
0000
0000
1010
0000
0000
0000
0100
0000
0001
0000
0010
0100
0000
0000
0000
0000
,
1000
0000
0000
0000
0000
0010
0000
0100
0000
0010
0001
0000
0000
0000
1010
0000
0000
0000
0100
0000
0000
0000
0001
0000
0000
0000
0010
0000
0100
0000
1000
0000
,
0000
0010
0000
0100
0000
0010
0000
0001
0000
0010
0100
1000
0100
0010
0100
1000
,
0100
0010
0100
1000
0100
0010
0100
1000
0100
0010
0002
0000
0000
0000
0000
0000
,
0000
0000
0000
0000
0000
0003
0010
0100
1000
0101
0000
0000
0000
1010
0000
0100
,
0000
0000
0000
0010
0000
1001
0000
0010
0000
1100
0000
0000
0000
0101
0000
0010
,
0000
1000
0100
0010
0000
0101
0000
0010
0000
1001
0000
0000
0000
1010
0000
0100
,
0000
0000
0000
0001
0000
1100
0000
0100
0010
0101
0000
0000
0000
1010
0000
0101
,
0000
0000
0000
0101
0000
1010
0000
0001
0010
1100
0000
0000
0101
0000
0000
0101
,
0000
0000
0000
1010
0000
0100
0000
0010
0000
0101
0000
0010
0000
0010
0000
0101
,
0000
0001
0010
1100
0000
0101
0000
0101
0000
1011
0000
0000
0000
0101
0000
0000
,
0000
0100
0000
0100
0000
1001
0000
0100
0000
0000
0000
0011
0000
0011
0000
0101
,
0000
1001
0000
0101
0000
0010
0100
1000
0100
0011
0000
0000
0000
1010
0000
0000
,
0100
0010
0000
0101
0000
0010
0000
1001
0000
0000
0000
0000
0000
0101
0000
0000
,
0010
0100
0000
1000
0000
0101
0000
0010
0000
1001
0000
0000
0001
0010
1000
0000
,
0000
0101
0000
1010
0000
0000
0000
0000
1101
0000
0000
0000
0000
1101
0000
0000
,
0000
1101
0000
0000
0000
1101
0000
0000
0000
1111
0000
0000
0000
0101
0000
0000
,
0010
1000
0000
0100
0000
0011
0000
0100
0000
1001
0000
0000
0000
0110
0000
0000
,
1000
0010
0000
0100
0000
0011
0000
0100
0000
1010
0000
0000
0000
0101
0000
0000
,
0100
0010
0000
1000
0000
0011
0000
0010
0100
1011
0000
0000
0111
0000
0000
1101
,
0000
1101
0000
0000
0000
1101
0000
0000
0000
1111
0000
0000
0000
0000
0000
0000
;

//---------------dance-single - ----------------
#NOTES:
     dance-single:
     :
     Medium:
     1:
     0.000,0.000,0.000,0.000,0.000,0.000,0.000,0.000,0.000,0.000:
0000
0000
0000
0000
;

//---------------dance-single - ----------------
#NOTES:
     dance-single:
     :
     Easy:
     1:
     0.000,0.000,0.000,0.000,0.000,0.000,0.000,0.000,0.000,0.000:
0000
0000
0000
0000
;
